&title=チルノのパーフェクトさんすう教室 ⑨周年バージョン [DX]
&wholebpm=175
&artist=IOSYSと愉快な⑨周年フレンズ
&des=華火職人
&shortid=10665
&genre=東方Project
&cabinet=DX
&version=maimai DX
&chartconverter=Neskol
&lv_2=3
&des_2=-
&lv_3=7
&des_3=-
&lv_4=9
&des_4=サファ太
&lv_5=12+
&des_5=華火職人
&des_6=
&inote_2=
(175){1},
{1},
{1},
{1},
{1},
{1},
{1},
{1},
{1},
{1}1,
{1}1,
{1}2,
{1}2,
{1}3,
{1}3,
{1}4/5,
{1}4x/5x,
{1}5xh[8:3],
{1}5xh[8:3],
{1}5xh[8:3],
{2}5,5,
{1}4xh[8:3],
{1}4xh[8:3],
{1}4xh[8:3],
{2}4/5,4/5,
{1}4xh[8:3]/5xh[8:3],
{1}4xh[8:3]/5xh[8:3],
{1}4xh[8:3]/5xh[8:3],
{2}3/6,3/6,
{1}3xh[8:3]/6xh[8:3],
{1}3xh[8:3]/6xh[8:3],
{1}2-6[4:3],
{1},
{2}7,7,
{1}7,
{2}6,6,
{1}6x,
{2}5,5,
{1}5,
{2}4,4,
{1}4b,
{2}3,3,
{1}3,
{2}2,2,
{1}2x,
{2}1/8,1/8,
{1}1x/8x,
{1}1-4[4:3]/8-5[4:3],
{1},
{1}B3,
{1}B2,
{1}B1,
{1}B8,
{1}B7,
{1}B6,
{1}C1hf[1:1],
{1},
{2}1,1,
{1}1,
{2}2,2,
{1}2,
{2}3/4,3/4,
{1}3/4,
{2}5/6,5/6,
{1}5b/6b,
{2}8,8,
{1}8,
{2}7,7,
{1}7,
{2}5/6,5/6,
{1}5/6,
{2}3/4,3/4,
{1}3b/4b,
{1}1h[8:3]/2h[8:3],
{1}1h[8:3]/2h[8:3],
{1}1h[8:3]/2h[8:3],
{2}1/8,1/8,
{1}7h[8:3]/8h[8:3],
{1}7h[8:3]/8h[8:3],
{1}7h[8:3]/8h[8:3],
{2}1/8,1/8,
{1}2h[8:3]/8h[8:3],
{1}2h[8:3]/8h[8:3],
{1}2h[8:3]/8h[8:3],
{2}1/8,1b/8b,
{1}1h[8:3]/7h[8:3],
{1}1h[8:3]/7h[8:3],
{1}8-3[4:3],
{4},,,1x,
{1},
{1},
{1},
E
&inote_3=
(175){1},
{1}2qq5[8:9],
{1},
{1}2qq5[8:9],
{1},
{1}2qq5[8:9],
{1},
{4}1,1,8,8,
{1}2b/7b,
{1}3h[2:3],
{2}4,4,
{1}6h[2:3],
{2}5,5,
{4}3,3,3,,
{4}4,4,4,,
{4}5,5,4,4,
{4}4x/5x,4x/5x,3b/6b,,
{4}2,2,1/2,,
{4}7,7,7/8,,
{4}2,2,1/2,,
{4}3,4,5,6,
{4}7,7,7x/8x,,
{4}2,2,1x/2x,,
{4}7,7,7x/8x,,
{4}6,5,4,3,
{4}2x,2x,1x/2x,,
{4}7x,7x,7x/8x,,
{4}2x,2x,1x/2x,,
{4}3,4,5,6,
{4}7x,7x,7b/8b,,
{4}2x,2x,1b/2b,,
{4}8,8,1,1,
{1}1-4[8:3]/8-5[8:3],
{4}6h[2:1],,5,4,
{4}5h[2:1],,4,3,
{4}3h[2:1],,4,4,
{4}5,5,4/6,,
{4}3h[2:1],,4,5,
{4}4h[2:1],,5,6,
{4}6h[2:1],,5,5,
{4}4,4,3/5,,
{4}6h[2:1],,5,4,
{4}4h[2:1],,5,6,
{4}6h[2:1],,5,4,
{4}4x/5x,4b/5b,4b/5b,,
{2}4h[4:1]/5h[4:1],4h[4:1]/5h[4:1],
{2}3h[4:1]/6h[4:1],2b/7b,
{4}1,1,8,8,
{2}1h[4:1]/8h[4:1],2x/7x,
{2}B6,B4,
{1}B5,
{2}B3,B5,
{1}B4,
{2}B2,C1,
{2}B6,B7,
{1}C1hf[1:1],
{1},
{4}1,2,3,4/5,
{4}6,7,7x/8x,,
{4}6,5,4,3,
{4}2,1/8,2b/7b,,
{2}3h[2:1],4h[2:1],
{2}5h[2:1],6x,
{4}7,7,8,8,
{4}1x/8x,1x/8x,2b/7b,,
{4}8,7,6,4/5,
{4}3,2,1x/2x,,
{4}3,4,5,6,
{4}7,1/8,2b/7b,,
{2}6h[2:1],5h[2:1],
{2}4h[2:1],3x,
{4}2,2,1,1,
{4}1x/8x,1x/8x,2b/7b,,
{4}2,2,1/2,,
{4}7,7,7/8,,
{4}2,2,1/2,,
{4}3,4,5,6,
{4}7,7,7x/8x,,
{4}2,2,1x/2x,,
{4}7,7,7x/8x,,
{4}6,5,4,3,
{4}2x,2x,1x/2x,,
{4}7x,7x,7x/8x,,
{4}2x,2x,1x/2x,,
{4}3,4,5,6,
{4}7x,7x,7b/8b,,
{4}2x,2x,1b/2b,,
{1}2qq5[8:9],
{4},,,C1f,
{1},
{1},
{1},
E
&inote_4=
(175){1},
{1}3xh[8:29]/6xh[4:15],
{1},
{1},
{1},
{1}2xh[8:27]/7xh[4:13],
{1},
{1},
{1},
{2}5x/6xh[1:1],4,
{2}3h[1:2],4,
{2}5,6,
{1}7<4[8:3],
{2}4h[4:1]/6h[4:1],3h[4:1]/5h[4:1],
{4}2/6,3/7,4-1[8:1]/8-5[8:1],,
{4}6h[4:1],5,3h[4:1],4,
{8}3xh[4:3]/6,,,,,8x,8x,,
{4}5x/6x,7,5x/6x,8,
{4}5x/6x,7,5x/6x,8,
{4}5x/6x,7,5x/6x,2/7,
{8}6,6,5,,3,3,4,,
{4}3x/4x,2,3x/4x,1,
{4}3x/4x,2,3x/4x,1,
{4}3x/4x,2,3x/4x,2/7,
{8}3h[4:1]/6h[4:1],,,,4/5,4/5,4/5,,
{4}5xh[4:1]/6,7,5xh[4:1]/6,8,
{4}5xh[4:1]/6,7,5xh[4:1]/6,8,
{4}5xh[4:1]/6,7,5x/6x,1/8,
{8}3,5,3,,6,4,6,,
{4}3/4xh[4:1],2,3/4xh[4:1],1,
{4}5xh[4:1]/6,7,5xh[4:1]/6,8,
{16}7xh[16:3],,,6xh[16:3],,,5xh[16:3],,,4xh[16:3],,,3x,,,,
{8}5x/6x,5x/6x,5x/6x,5x-1[8:1]/6x,,,8b,,
{8}6,6,5,,7,,4/5,,
{8}3,3,4,,2,,4/5,,
{4}5/6,7,3/4,2,
{4}4-1[8:1]/5-8[8:1],,2x/7x,2x/7x,
{4}2/4,1,7h[4:1]/8h[4:1],,
{4}7/8,6-3[4:1]/7-2[4:1],,,
{8}4/6,,3,3,5,,6,6,
{16}4x,,,4x/6x,,,3x/5x,,,3x/5x,,,2x/6x,,,,
{8}7,7,8,,7,,1x/8x,,
{8}2,2,1,,3xh[4:1]/8xh[4:1],,,,
{4}4/5,5/7,4/5,2/4,
{4}5-2[8:1]/6-1[8:1],,3x/8b,1b,
{2}2>5[8:1]/6h[4:3],2>5[8:1],
{8}7,,3/5,,6,6,5,,
{4}3/4,1,5/6,8xw4[4:1],
{2},2x/6x,
{2}E4/E5,B2/B3,
{1}E1/E2,
{2}E5/E6,B6/B7,
{1}E1/E8,
{4}E4,E3,E2,E1,
{4}E8,E7,E4/E6,,
{2}1b,2b,
{1}C1f/B2/B7,
{4}7/8,5/6,3/4,1/2,
{8}7,7,8,,1/6,,3/8,,
{4}1/2,3/4,5/6,7/8,
{8}2,2,1,,2-5[8:1]/7-4[8:1],,,,
{8}3b/7b,,,8,1/8,,2/7,,
{8}3/4,,4/5,,6,5,4/7,,
{2}2x-4[8:1]/8x-4[8:1],1x-5[8:1]/7x-5[8:1],
{2}4x-8[8:1]/5x-1[8:1],2b/7x,
{4}5/6h[4:1],8,1/2h[4:1],4,
{8}6,5,5/6,,4/7,,3/6,,
{4}2h[4:1]/4,1,7h[4:1]/8,5,
{8}3,4,3/4,,2/5,,5xw1[4:1]/6x,,
{4},,2/7,4/5,
{8}2,2,5,5,4,4,4/7,,
{2}1xh[4:1]/2-5[8:1],7-4[8:1]/8xh[4:1],
{8}1-5[8:1]/2-5[8:1],,,,4x/7x,4x/7x,4x/7b,,
{4}5xh[4:1]/6x,8,5/6xh[4:1],1,
{4}5xh[4:1]/6,8,5x/6xh[4:1],1,
{4}5xh[4:1]/6,8,5x/6x,2/7,
{4}E3/E4,B5,E6/E7,E5,
{4}3x/4xh[4:1],1,3xh[4:1]/4,8,
{4}3x/4xh[4:1],1,3xh[4:1]/4,8,
{4}3x/4xh[4:1],1,3x/4x,1/8,
{4}E6/E7,B4,E3/E4,E5,
{4}4x/6xh[4:1],8,4xh[4:1]/6,1,
{4}4x/6xh[4:1],8,4xh[4:1]/6,1,
{4}2x/8xh[4:1],5,2xh[4:1]/8x,4,
{4}C1f/B3/B6,,1/8,2/7,
{4}4x/6xh[4:1],8,3xh[4:1]/5x,1,
{4}3x/5xh[4:1],8,4xh[4:1]/6x,1,
{16}2xh[16:3],,,3xh[16:3],,,4xh[16:3],,,5xh[16:3],,,6x,,,,
{8}3x/4x,3x/4x,3x/4x,3x/4x-8[8:1],,,1b,,
{1},
{1},
{1},
E
&inote_5=
(175){1},
{8}6,,5/7,5/7<4[4:1],,,,,
{8}3,,2/4,2>5[4:1]/4,,,,,
{4}6,5/7,3,2/4,
{8}1/8,,3/6,3h[8:3]/6,,8b,8b,,
{8}2,,1/3,1/3v6[4:1],,,,,
{8}7,,6/8,6v3[4:1]/8,,,,,
{8}2,2,4,4,5,5,7,7,
{8}4/8,3/7,2/6,1b/5b,,4,5,6,
{1}2bq7[2:1]/7,
{4}6h[1:1],E8,C1,E2,
{1}8xq4[2:1],
{16},,B7,B6,B5,B4,B3,B2,C1f,,,,1/8,,,,
{2}3h[4:1]/4h[4:1],5h[4:1]/6h[4:1],
{4}3h[4:1],E3/B3,6h[4:1],B6/E7,
{4}4/5,C1/B3/B6,1/8,C1/B2/B7,
{8}1-5[8:1]/8-4[8:1],,,,,1b,1b,,
{16}1/8,,2,1,2,,3/4h[8:3],,,,5x,,5x,,,,
{16}1/8,,7,8,7,,5h[8:3]/6,,,,4x,,4x,,,,
{16}1/8,,2,1,2,,3/4h[8:3],,,,5x,,5x,,,,
{8}3/4,,5/6,,2,1,8,7,
{16}4/5,,6,5,6,,7/8h[8:3],,,,1x,,1x,,,,
{16}4/5,,3,4,3,,1h[8:3]/2,,,,8x,,8x,,,,
{16}4/5,,6,5,6,,7/8h[8:3],,,,1x,,1x,,,,
{16}1,8,1,8,2,7,2,7,1x/8x,,2x/7x,,3x/6x,,4x/5x,,
{16}2/7,,3,4,3,,5h[4:1]/6,,,,E7,,E8,,,,
{16}1/8,,6,5,6,,3/4h[4:1],,,,E3,,E2,,,,
{16}1/8,,3,4,3,,5h[4:1]/6,,,,E7,,E8,,,,
{8}3/4,,5/6,,7,8,1,2,
{16}3/6,,2,1,2,,7/8h[4:1],,,,E7,,E6,,,,
{16}4/5,,7,8,7,,1h[4:1]/2,,,,E3,,E4,,,,
{16}7,7,,1,1,,5,5,,3,3,,4/8,,2/6,,
{16}1/8,,2/7,,3/6,,4/5,4/5,,,,,B1/C1f/B2/E2,,,,
{4}7,7/8<4[4:1],,,
{8}3/4h[4:1],,5q2[4:1],5,,,,,
{2}3q5[4:1],8-4[8:1],
{4}5-1[8:1]/6h[4:1],,3b/7b,1b/5b,
{16}3-8[8:1],4,3,4,3,,,,7-3[8:1]*-4[8:1],,,,7x,,,,
{16}6-1[8:1],5,6,5,6,,,,2-5[8:1]*-6[8:1],,,,2x,,,,
{8}4/7h[4:1],,8,1,2h[4:1]/5,,1,8,
{16}2x/5x,,,4x/7x,,,1x/3x,,,6x/8x,,,2b/7b,,,,
{16}2/5,,3,4,3,,4/5,,2-5[8:1]/7,,,,1b/2b,,,,
{16}4/7,,6,5,6,,4/5,,2/7,,8b,1b,8b,,,,
{16}2/5,,3,4,3,,1/2,,4/7,,6,5,6,,7/8,,
{8}3,1b,6,8b,4/5,2b/7b,1b/8b,,
{4}2>5[8:1]/7h[4:3],2x,2>5[8:1],2x,
{8}7/8,,1/2,,4,5,3/6,,
{2}4-7[8:1]/5,4/5-2[8:1],
{1}1pp4[2:1]/8qq5[2:1],
{2}3h[1:1],B3,
{2}4h[1:1],B4,
{2}5h[1:1],B5,
{2}6h[1:1],C1,
{4}1h[4:1],2h[4:1],3h[4:1],4h[4:1],
{4}5h[4:1],6h[4:1],7h[4:1],8h[4:1],
{2}1b,2b,
{1}E1/C1f/B2/E2/B3/B4/E5/B8,
{32}1x,2x,3x,4x,5x,6x,7x,8x,1x,2x,3x,4x,5x,6x,7x,8x,1x,2x,3x,4x,5x,6x,7x,8x,1xs5[8:3],2x,3x,4x,5x,6x,7x,8x,
{2}1x,2b/7b,
{32}8x,7x,6x,5x,4x,3x,2x,1x,8x,7x,6x,5x,4x,3x,2x,1x,8x,7x,6x,5x,4x,3x,2x,1x,8xs4[8:3],7x,6x,5x,4x,3x,2x,1x,
{4}8x,,2b/6b,3b-8[32:3]/7b-4[32:3],
{4}3x/7x,,B2/E3/B3,B6/E7/B7,
{16}4/5,,3,4,2,,1/8,,2/7,,6,5,7,,3/4,,
{4}2h[16:3]/5h[16:3],3h[8:1]/4h[8:1],4h[16:3]/7h[16:3],5h[8:1]/6h[8:1],
{4}1x-5[8:1]/8x-6[8:1],1x-3[8:1]/8x-4[8:1],1b/8b,,
{8}B6,E4,E8,E3,B5,B1,B7,B3,
{8}B8,E2,B6,E4,C1f,,,,
{8}E3/B3,B6/E7,B1/E2,E8/B8,B4/E4,B5/E6,B2/B3,B6/B7,
{4}C1hf[2:1],,,2/7,
{4}2-4[8:1],7-5[8:1],2-5[8:1],7-4[8:1],
{4}1-6[8:1],8-3[8:1],2-5[8:1],8x,
{4}1-5[8:1]/2-4[8:1],1x/2x,7-5[8:1]/8-4[8:1],7x/8x,
{4}1bw5[4:1],,,3b/7b,
{16}4/5,,2qq5[8:3],1,2,,7,,,,6x,,6x,,,,
{16}4/5,,2qq5[8:3],1,2,,7,,,,6x,,6x,,,,
{16}4/5,,2qq5[8:3],1,2,,7,,,,6x,,6x,,,,
{4}1h[8:1]/2h[8:1],4h[8:1]/5h[8:1],7h[8:1]/8h[8:1],4h[8:1]/5h[8:1],
{16}4/5,,7pp4[8:3],8,7,,2,,,,3x,,3x,,,,
{16}4/5,,7pp4[8:3],8,7,,2,,,,3x,,3x,,,,
{16}4/5,,7pp4[8:3],8,7,,2,,,,3x,,3x,,,,
{4}B2/E2/E3,B4/E5/B5,B7/E7/E8,C1f/B4/B5,
{16}1/8,,2qq5[8:3],1,2,,7,,,,6x,,6x,,,,
{16}3/6,,2qq5[8:3],1,2,,7,,,,6x,,6x,,,,
{16}3/6,,2qq5[8:3],1,2,,7,,,,6x,,6x,,,,
{4}C1f,C1f/B3/B6,C1f/B2/E3/E7/B7,,
{4}2>2[8:3]*qq5[8:3]/7,,,1b/8b,
{4}2>2[8:3]*qq5[8:3]/7,,,1b/8b,
{16}7,7,,1,1,,5,5,,3,3,,4/8,,2/6,,
{16}1/8,,2/7,,3/6,,4/5,4-8[8:1]/5,,,,,1b,,,,
{1},
{1},
{1},
E
